<?xml version="1.0" standalone="no"?>
<!DOCTYPE svg PUBLIC "-//W3C//DTD SVG 1.1//EN" "http://www.w3.org/Graphics/SVG/1.1/DTD/svg11.dtd">
<svg xmlns="http://www.w3.org/2000/svg">
<metadata>Generated by Fontastic.me</metadata>
<defs>
<font id="untitled-font-6" horiz-adv-x="512">
<font-face font-family="untitled-font-6" units-per-em="512" ascent="480" descent="-32"/>
<missing-glyph horiz-adv-x="512" />

<glyph glyph-name="archery-2e51baa8-8dde-4371-83a2-a04df335dd59" unicode="&#97;" d="M440 302l0-92 69 46z m-322-46l-36 36c-7 7-15 10-23 10l-56 0 46-46-46-46 56 0c8 0 16 3 23 10z m149-256c-3 0-7 1-10 4-12 13-15 26-15 34 1 19 14 32 16 33l45 46c61 60 54 133 53 137 0 0 0 1 0 2 0 1 0 1 0 2 1 6 8 77-53 137l-46 46c-1 1-14 14-15 33 0 8 3 21 15 34 6 5 15 5 21 0 5-6 5-15 0-21-4-4-7-8-7-12 0-6 5-11 6-13l47-46c67-67 63-146 62-160 1-13 5-92-62-160l-46-45c-2-2-7-8-7-13 0-4 2-8 7-13 5-5 5-15 0-20-3-3-7-5-11-5z m-195 271l368 0 0-30-368 0z m58 26c-1 0-3 1-4 2-3 3-4 7-1 10l128 162c2 3 7 3 10 1 3-3 4-7 1-10l-128-162c-2-2-4-3-6-3z m128-258c-2 0-4 1-5 2l-128 162c-3 3-2 8 1 10 3 3 7 2 10-1l128-161c3-4 2-8-1-11-2-1-3-1-5-1z"/>
<glyph glyph-name="badminton-63987168-fa08-4f23-a303-96f50f61adc8" unicode="&#98;" d="M273 0c-29 0-57 11-77 32-20 19-21 52-5 75l170 235-19 19-235-170c-23-17-55-15-75 4-21 22-33 52-32 82 1 22 16 43 39 51l274 102 117-117-102-274c-8-23-29-38-51-39-2 0-3 0-4 0z m108 322l-166-232c-9-12-9-28 1-37 16-17 37-25 60-24 11 0 21 8 26 20l95 257z m-75 75l-257-96c-12-4-20-14-20-25-1-23 8-44 23-60 10-10 26-10 38-2l232 167z m-153-354c-29 0-57 12-78 32-33 33-41 84-21 126l26-13c-15-31-9-68 16-92 24-25 61-31 92-16l12-26c-15-7-31-11-47-11z m-46 289l20 20 225-225-20-20z m377 152c-38 37-99 37-137 0-8-9-15-19-19-29l127-127c10 4 20 11 29 19 37 38 37 99 0 137z"/>
<glyph glyph-name="ballroomdance-6ee1e292-4922-4a2f-a71c-26cbc92329c1" unicode="&#99;" d="M234 222c0 0-11-42-73-88-55-39-117-45-117-45-12-1-11-15-9-22 7-30 31-50 61-55 21-3 38 3 48 8 10-8 30-20 56-20 25 0 44 11 55 18 9-8 26-18 57-18 32 0 49 11 58 19 8-4 22-8 42-8 50 0 65 39 66 41 2 4 1 9-3 12-59 53-168 184-168 184-22-24-73-26-73-26z m222 126c-1 12-12 21-25 19l-87-11-60 0c-3 0-6-1-9-2l-78-33c-5-2-9-6-11-12l-29-67-57-34c-11-6-14-20-8-30 4-7 12-11 19-11 4 0 8 1 12 3l63 38c3 2 7 6 9 10l21 48 16-21 11 0c10 0 40 5 51 20 3 4 3 8 3 8l-8 39 56 0c1 0 2 0 3 0l89 11c12 2 21 13 19 25z m-194 45c-10-4-18-12-21-23l-1-7 26 12c6 2 12 3 18 3l58 0 54 7c-6 7-10 14-12 15-9 12-30 12-36 10z m105-115l0 14-16-2c-2-1-4-1-6-1l-29 0 4-23 4-4c1-1 43-51 88-101 0 6-1 12-4 18 0 0-41 87-41 99z m73 23l-50-6 0-17c0-11 7-19 17-21 1-1 1-1 2-1 0 0 0 0 0 0 0 0 0 0 0 0 1 0 2 0 3 0 7 0 15 4 19 9 3 5 4 7 6 11 3 6 7 16 11 26-3 0-6-1-8-1z m-128 166c0-24-20-44-45-44-24 0-44 20-44 44 0 25 20 45 44 45 25 0 45-20 45-45z m-89-77c0-25-20-45-45-45-24 0-44 20-44 45 0 24 20 44 44 44 25 0 45-20 45-44z"/>
<glyph glyph-name="baseball-ae22119c-0304-4134-af60-5c8d82fdd5c3" unicode="&#100;" d="M256 0c-141 0-256 115-256 256 0 141 115 256 256 256 141 0 256-115 256-256 0-141-115-256-256-256z m0 484c-126 0-228-102-228-228 0-126 102-228 228-228 126 0 228 102 228 228 0 126-102 228-228 228z m-171-413c-4 0-8 2-10 4-6 6-6 15 0 20 42 43 66 100 66 161 0 61-24 118-66 161-6 6-6 15 0 20 5 5 14 5 19 0 49-48 75-112 75-181 0-68-26-132-75-180-2-3-6-5-9-5z m100 171l-60 0c-8 0-14 6-14 14 0 8 6 14 14 14l60 0c7 0 14-6 14-14 0-8-7-14-14-14z m-83 91c-5 0-11 3-13 9-3 7 1 15 8 18l57 22c8 2 16-1 18-8 3-8 0-16-8-18l-57-22c-1-1-3-1-5-1z m57-204c-1 0-3 1-5 1l-57 22c-7 3-11 11-8 18 3 7 11 11 18 8l57-22c8-3 11-11 8-18-2-5-7-9-13-9z m268-58c-3 0-7 2-9 4-49 49-75 113-75 181 0 68 26 132 75 181 5 5 14 5 19 0 6-6 6-15 0-20-42-43-66-100-66-161 0-61 24-118 66-161 6-6 6-15 0-20-2-2-6-4-10-4z m-40 171l-60 0c-7 0-14 6-14 14 0 8 7 14 14 14l60 0c8 0 14-6 14-14 0-8-6-14-14-14z m-34-113c-6 0-11 4-13 9-3 7 0 15 8 18l57 22c7 3 15-1 18-8 3-7-1-15-8-18l-57-22c-2 0-4-1-5-1z m57 204c-2 0-4 0-5 1l-57 22c-8 2-11 10-8 18 2 7 10 10 18 8l57-22c7-3 11-11 8-18-2-6-8-9-13-9z"/>
<glyph glyph-name="basketball-c26bc5f4-b43a-4068-b886-5238bf675178" unicode="&#101;" d="M256 0c-141 0-256 115-256 256 0 141 115 256 256 256 141 0 256-115 256-256 0-141-115-256-256-256z m0 484c-126 0-228-102-228-228 0-126 102-228 228-228 126 0 228 102 228 228 0 126-102 228-228 228z m162-409c-49 49-75 113-75 181 0 68 26 132 75 181l19-20c-42-43-66-100-66-161 0-61 24-118 66-161z m-324 0l-19 20c42 43 66 100 66 161 0 61-24 118-66 161l19 20c49-49 75-113 75-181 0-68-26-132-75-181z m148 423l28 0 0-484-28 0z m-228-228l484 0 0-28-484 0z"/>
<glyph glyph-name="bowling-ccce22bf-443e-4e63-b364-66db1cd15c2e" unicode="&#102;" d="M184 366c-97 0-175-78-175-175 0-96 78-175 175-175 97 0 175 78 175 175 0 97-78 175-175 175z m14-64c11 0 20-9 20-20 0-11-9-20-20-20-11 0-20 9-20 20 0 11 9 20 20 20z m5-114c-12 0-20 9-20 20 0 11 8 20 20 20 11 0 20-9 20-20 0-11-9-20-20-20z m59 39c-11 0-20 9-20 20 0 11 9 20 20 20 11 0 20-9 20-20 0-11-9-20-20-20z m140-225c-15 0-88 2-90 35-2 8-11 69-11 121 0 33 17 85 33 132 11 31 21 63 21 75 0 9-5 21-10 33-5 15-11 30-11 44 0 37 30 68 68 68 38 0 68-31 68-68 0-14-6-29-11-44-5-12-10-24-10-33 0-12 10-44 21-75 16-47 33-99 33-132 0-52-9-113-11-121-2-33-75-35-90-35z m-63 39c6-4 28-11 63-11 34 0 57 7 62 11 2 8 11 67 11 117 0 28-18 81-32 123-14 42-23 68-23 84 0 14 6 28 12 43 5 12 10 25 10 33 0 23-18 41-40 41-23 0-41-18-41-41 0-8 5-21 10-33 6-14 12-29 12-43 0-16-9-42-23-84-15-43-32-95-32-123 0-50 10-109 11-117z m30 324c0-9-4-25-10-43l86 0c-6 19-11 34-11 43z"/>
<glyph glyph-name="cheerleading-793d7439-2496-4eec-b5fd-1078480252cd" unicode="&#103;" d="M14 200c-8 0-14 6-14 14l0 84c0 8 6 14 14 14 8 0 14-6 14-14l0-84c0-8-6-14-14-14z m241-156c-7 0-15 2-22 5l-50 21c-13 6-24 17-30 30-5 14-5 29 1 43l13 31c3 7 11 10 18 7 7-3 10-11 7-18l-13-31c-3-7-3-14 0-21 3-7 8-13 15-16l50-21c7-3 15-3 22 0 7 3 12 8 15 15l13 31c3 7 11 10 18 7 7-3 11-11 8-18l-13-31c-6-14-17-24-31-30-7-3-14-4-21-4z m243-44c-8 0-14 6-14 14l0 484c0 8 6 14 14 14 8 0 14-6 14-14l0-484c0-8-6-14-14-14z m-442 309l0-106 442-178 0 462z m275-186l-108 44 0 178 108 44z"/>
<glyph glyph-name="chess-3393048b-ab75-48ba-9e84-76277d5b7698" unicode="&#104;" d="M169 349l174 0c23 0 41 18 41 41l0 104c0 10-8 18-18 18-9 0-17-8-17-18l0-40-46 0 0 40c0 10-8 18-18 18l-58 0c-10 0-18-8-18-18l0-40-46 0 0 40c0 10-8 18-18 18-9 0-17-8-17-18l0-104c0-23 18-41 41-41z m227-267c7 10 11 22 11 34 0 31-18 48-36 63-20 18-51 50-57 100l0 47-116 0 0-47c-6-50-37-82-57-100-18-16-36-32-36-63 0-12 4-24 11-34z m-274-24l268 0c16 0 29-13 29-29 0-16-13-29-29-29l-268 0c-16 0-29 13-29 29 0 16 13 29 29 29z"/>
<glyph glyph-name="crosscountry-abc7f67a-a32d-47bf-8e09-43a999f41e26" unicode="&#105;" d="M147 212l-135-145c-10-11-10-28 1-39 11-11 29-11 40 0l140 140-9 5c-16 10-29 23-37 39z m333 96c-4 0-8 0-12-2l-61-28-47 94c-5 11-13 19-24 25l-124 64c-4 2-8 3-13 3-4 0-8-1-12-2l-86-44c-14-7-20-23-13-37 5-10 15-15 25-15 4 0 9 1 12 3l74 36 58-29-64-61c-33-31-27-85 11-109l71-44-76-75c-10-11-11-28 0-39 6-6 13-9 20-9 7 0 14 3 19 8l95 94c10 10 11 26 2 37l-51 65 53 50 32-63c5-10 15-16 25-16 4 0 7 1 11 3l86 38c14 6 20 23 14 37-5 10-15 16-25 16z m-58 73c30 0 55 25 55 56 0 30-25 55-55 55-31 0-56-25-56-55 0-31 25-56 56-56z"/>
<glyph glyph-name="diving-ab770c6f-b3d5-48cb-b1ca-b9a5cde85b37" unicode="&#106;" d="M416 9c-34 0-67 13-80 19-13-6-46-19-80-19-33 0-66 13-80 19-13-6-46-19-80-19-42 0-84 21-86 22-7 3-9 11-6 18 3 7 12 10 19 6 0 0 37-18 73-18 37 0 74 18 74 18l6 4 7-4c0 0 37-18 73-18 37 0 74 18 74 18l6 4 7-4c0 0 37-18 73-18 37 0 74 18 74 18 7 4 15 1 19-6 3-7 1-15-6-18-3-1-44-22-87-22z m-24 282l-41 0c0 0 0 156 0 160 0 28-24 52-53 52-3 0-7-1-10-1-71-11-146-128-146-197 0-29 23-53 52-53l198 0c11 0 20 9 20 20 0 10-9 19-20 19z m-108 70l8-70-47 0c9 25 23 49 39 70z m25-234c0-11 9-21 21-21 11 0 21 10 21 21l0 84-51 0z m-104 52c0-28-24-52-53-52-28 0-52 24-52 52 0 29 24 53 52 53 29 0 53-24 53-53z"/>
<glyph glyph-name="drillteam-8276aa6d-ff74-44ed-95e6-a9c4e9e192c0" unicode="&#107;" d="M321 420c0-29-23-53-52-53-29 0-53 24-53 53 0 29 24 52 53 52 29 0 52-23 52-52z m178-328c-53 19-107 35-161 51 0 0 0 134 0 134 48 27 97 53 143 84 8 5 12 15 8 23-4 11-15 15-25 11-49-19-96-42-143-65-2-2-9-1-12-1-85-1-169-2-253-8-7-1-15-1-21-6-9-7-9-24 1-30 6-4 12-5 19-5 48-4 96-6 145-7 0 0 0-93-1-93-58 15-117 29-176 40-9 2-19-3-22-12-4-10 2-22 12-25 38-14 76-26 114-38 84-24 167-46 251-67 37-8 74-17 111-23 9-2 19 3 22 12 4 10-2 21-12 25z m-393-2l-97 0c-4 0-8 4-8 8 0 4 4 7 8 7l97 0c4 0 7-3 7-7 0-4-3-8-7-8z m85-50l-133 0c-5 0-8 3-8 7 0 4 3 8 8 8l133 0c4 0 8-4 8-8 0-4-4-7-8-7z"/>
<glyph glyph-name="fencing-fb49dc21-222b-41f0-8754-3419cd10bab6" unicode="&#108;" d="M172 455c0-23-19-42-42-42-24 0-43 19-43 42 0 24 19 42 43 42 23 0 42-18 42-42z m3-65c3 0 6 0 8-1l68-37 60 0 0-39-71 0c-3 0-6 0-9 2l-49 28 0-130 45-66c3-3 4-6 5-10l14-100c1-5 0-10-3-14-3-4-8-7-13-8-1 0-2 0-3 0-9 0-17 6-19 16l-14 95-59 61-100-165c-4-5-9-7-15-7-5 0-9 1-13 4-8 7-9 19-2 27l52 91 21 78 0 119-39-35 0-57c0-11-8-20-19-20-11 0-20 9-20 20l0 70c0 9 7 15 11 18l69 59c3 1 5 1 8 1z m136-111l-7 0 0 106 7 0c29 0 53-24 53-53 0-29-24-53-53-53z m7 90l0-74c18 3 31 19 31 37 0 19-13 34-31 37z m38-30l100 0 0-14-100 0z m0-7c7 3 13 6 20 8l117 0c6-3 13-5 19-8-6-3-13-5-19-7l-117 0c-7 2-13 4-20 7z"/>
<glyph glyph-name="fieldhockey-d5353a26-f74f-4e11-aa2e-eb72148c7c6f" unicode="&#109;" d="M127 229c-59 0-107 48-107 107 0 59 48 107 107 107 58 0 107-48 107-107 0-59-48-107-107-107z m0 184c-43 0-78-34-78-77 0-43 35-78 78-78 42 0 77 35 77 78 0 43-34 77-77 77z m365 98l-70 0-167-378c-4-9-8-21-14-28-6-9-18-10-29-6-11 3-15 12-16 22-1 3-1 6-2 9-5 27-34 40-58 27-22-13-30-34-27-58 5-41 27-72 64-87 92-39 144 36 161 87 0 0 158 412 158 412z"/>
<glyph glyph-name="synchronizeddiving-942cd68f-399f-4d57-9bc6-dfa8445b17bd" unicode="&#110;" d="M416 9c-34 0-67 13-80 19-13-6-46-19-80-19-33 0-66 13-80 19-13-6-46-19-80-19-42 0-84 21-86 22-7 3-9 11-6 18 4 7 12 10 19 6 0 0 37-18 74-18 36 0 73 18 73 18l6 4 7-4c0 0 37-18 74-18 36 0 73 18 73 18l6 4 7-4c0 0 37-18 74-18 36 0 73 18 73 18 7 4 16 1 19-6 3-7 1-15-6-18-3-1-44-22-87-22z m-249 303c8 23 21 44 35 63l7-63c8 35 28 73 53 104 0 22 0 39 0 40 0 26-21 47-47 47-3 0-6 0-9-1-64-10-132-115-132-178 0-25 21-47 47-47l83 0c0 11 2 23 5 35z m294-51l-37 0c0 0 0 141 0 144 0 26-21 47-47 47-4 0-7 0-10-1-63-10-131-115-131-177 0-26 21-47 47-47l178 0c10 0 18 7 18 17 0 10-8 17-18 17z m-97 63l6-63-42 0c8 23 21 44 36 63z m22-210c0-10 8-19 19-19 10 0 19 9 19 19l0 75-46 0z m-94 47c0-26-21-47-47-47-26 0-47 21-47 47 0 26 21 47 47 47 26 0 47-21 47-47z m-162 51c0-26-20-47-46-47-26 0-47 21-47 47 0 26 21 47 47 47 26 0 46-21 46-47z"/>
<glyph glyph-name="rugby-e3dde889-4c82-4c20-b71a-b2723ae3fdc4" unicode="&#111;" d="M149 9c-46 0-85 12-106 34-57 56-51 229 73 353 79 79 180 107 247 107 46 0 85-12 106-34 30-29 41-88 30-154-12-74-49-144-103-199-79-79-180-107-247-107z m214 467c-62 0-155-26-228-99-114-114-116-273-73-315 16-16 48-26 87-26 62 0 155 26 228 99 51 51 85 116 96 184 9 57 0 108-23 131-16 16-48 26-87 26z m-72-269c-3 0-6 1-9 4l-71 71c-5 5-5 14 0 19 5 5 14 5 19 0l71-71c5-5 5-14 0-19-3-3-6-4-10-4z m48 48c-3 0-6 1-9 4l-71 71c-5 5-5 14 0 19 5 5 14 5 19 0l71-71c5-5 5-14 0-19-3-2-6-4-10-4z m-96-96c-3 0-7 1-9 4l-71 71c-5 5-5 13 0 19 5 5 14 5 19 0l71-71c5-5 5-14 0-19-3-3-6-4-10-4z m230 94c-3 0-7 1-9 4l-206 206c-6 5-6 14 0 19 5 5 13 5 19 0l206-206c5-5 5-14 0-19-3-3-6-4-10-4z m-228-227c-4 0-7 1-10 4l-206 206c-5 5-5 14 0 19 5 5 14 5 19 0l206-206c6-5 6-14 0-19-2-3-6-4-9-4z"/>
<glyph glyph-name="skiing-53f9a1f0-24bc-4788-b269-fbf3f40a1942" unicode="&#112;" d="M452 9c-15 0-31 5-51 13l-390 161c-7 3-11 11-8 18 3 7 11 11 18 8l390-161c42-18 57-12 75 6 5 5 14 5 20 0 5-6 5-15 0-20-17-17-34-25-54-25z m-27 491c-21 8-44-1-52-22-8-20 1-43 21-51 21-8 44 1 52 21 8 20-1 43-21 52z m-313-84l-29 19 34-6z m16 39c19-7 27-28 20-46-8-19-29-27-47-20z m218-136c-1 0-2 1-2 1l-204 84c-4 2-5 6-4 9 2 4 6 6 9 4l204-84c4-2 5-6 4-9-1-3-4-5-7-5z m85-28l-59 25-13 109c-4 18-20 20-46 15-15-2-29-6-43-12-46-19-84-58-95-107-4-15 3-31 17-39l101-58-46-75c-6-9-3-22 6-28 9-5 22-3 28 6 0 0 56 91 56 91 6 9 4 21-6 28l-84 71c8 13 20 23 32 31 15 9 30 17 47 23l7-61c1-12 9-22 20-26l64-27c9-4 20 1 24 10 4 10-1 20-10 24z"/>
<glyph glyph-name="soccer-56a1c884-3c44-46c5-8fb3-dbc965b284c2" unicode="&#113;" d="M200 172l-35 106 91 66 91-66-35-106z m104 326l29-53-77-33-77 33 29 53z m-262-120l60 11 7-83-55-64-41 45z m34-286l8 60 81-19 44-72-56-25z m283-56l-56 25 44 72 81 19 8-60z m140 251l-41-45-55 64 7 83 60-11z m-243-287c-141 0-256 115-256 256 0 141 115 256 256 256 141 0 256-115 256-256 0-141-115-256-256-256z m0 484c-126 0-228-102-228-228 0-126 102-228 228-228 126 0 228 102 228 228 0 126-102 228-228 228z"/>
<glyph glyph-name="softball-02781306-48e3-4488-9142-d98358ff0227" unicode="&#114;" d="M302 199c-4 0-7 1-10 4-5 5-5 14 0 19 39 39 99 166 100 167l0 2c0 0 11 17 4 27-7 9-13 8-15 8-9-2-19-12-26-27-3-7-11-11-18-8-7 3-10 12-7 19 10 24 28 41 48 43 15 2 29-4 40-18 15-20 6-46-2-59-5-12-63-133-104-174-3-2-7-3-10-3z m43-57c-4 0-7 1-10 4-5 6-5 14 0 20 39 38 99 165 100 166l0 2c0 0 11 18 4 27-5 7-12 11-18 10-7-1-12-8-14-14-3-7-11-10-18-7-8 3-11 11-8 18 10 24 27 30 36 31 16 2 33-6 44-21 15-20 6-46-2-59-5-12-63-132-104-173-3-3-6-4-10-4z m-131-142c-28 0-50 5-59 9-73 30-121 78-143 144-47 147 59 329 60 331 20 31 44 29 53 27 17-4 30-18 32-33 3-27-6-60-14-86-2-9-4-16-6-23-6-26-8-83 6-97 2-1 4-2 9-1 35 8 70 57 132 187 12 26 30 31 40 32 15 1 30-6 40-19 15-20 6-46-2-59-6-12-64-133-105-173-5-6-14-6-20 0-5 5-5 14 1 20 38 38 98 165 99 166l1 2c0 0 11 17 3 27-4 5-9 9-14 8-7-1-13-6-17-16-69-143-106-192-152-203-13-3-25 1-34 9-28 28-18 104-13 123 1 7 3 15 5 24 7 24 15 54 13 76 0 2-4 7-10 9-11 2-19-9-23-15-1-2-100-174-57-308 19-57 61-100 127-126 17-7 123-26 207 61 40 39 103 167 104 168 1 1 12 19 4 29-5 7-14 11-22 10-6-1-11-5-15-13-3-7-11-11-18-8-7 3-10 11-7 18 7 18 20 29 37 31 17 2 36-7 48-22 15-20 5-47-3-59-2-4-65-132-108-174-59-61-129-76-179-76z m83 439c-2 0-5 1-7 2-68 42-111 32-140 25l-4-1c-8-2-15 3-17 11-2 7 3 15 11 16l4 1c31 7 83 19 161-28 6-4 9-12 4-19-2-4-7-7-12-7z m-34-69c-3 0-7 1-9 3-44 37-91 33-116 26-7-2-15 3-17 11-2 7 3 15 10 17 30 7 88 13 141-32 6-5 7-14 2-20-3-3-7-5-11-5z m-41-70c-4 0-7 1-9 3-33 28-91 20-92 20-7-1-14 4-15 12-2 8 4 15 11 16 3 0 71 9 113-26 6-5 7-14 2-20-2-3-7-5-10-5z m-170-69c0 0 0 0 0 0l-38 2c-4 0-7 4-7 7 0 4 3 7 7 7l38-2c4 0 7-3 7-7 0-4-3-7-7-7z m-32-60c-3 0-6 2-7 6-1 3 2 7 6 8l35 6c4 1 8-2 8-6 1-3-1-7-5-8l-36-6c0 0-1 0-1 0z m20-55c-3 0-5 2-6 5-2 3 0 7 4 9l34 13c4 1 8-1 9-4 2-4 0-8-4-9l-35-13c0-1-1-1-2-1z m40-51c-2 0-4 1-6 2-2 3-2 7 1 10l26 23c3 2 8 2 10-1 3-3 2-7-1-10l-26-23c-1-1-3-1-4-1z m54-38c-1 0-2 0-3 1-4 2-5 6-3 9l16 29c2 3 6 4 10 2 3-2 4-6 2-9l-16-29c-1-2-4-3-6-3z m65-20c-1 0-1 0-1 0-4 1-7 4-6 8l4 31c1 4 4 7 8 6 4 0 6-4 6-8l-4-31c-1-4-4-6-7-6z"/>
<glyph glyph-name="swimming-6ff748d7-4c97-4d87-84fd-f6951fefe98e" unicode="&#115;" d="M382 288c31 0 57 25 57 57 0 31-26 57-57 57-32 0-58-26-58-57 0-32 26-57 58-57z m34-178c-34 0-67 12-80 18-13-6-46-18-80-18-33 0-66 12-80 18-13-6-46-18-79-18-43 0-85 20-86 21-7 4-10 12-7 19 4 7 12 9 19 6 0 0 38-18 74-18 36 0 73 18 73 18l6 3 7-3c0 0 37-18 73-18 36 0 74 18 74 18l6 3 6-3c1 0 38-18 74-18 36 0 73 18 74 18 7 3 15 1 18-6 4-7 1-15-6-19-2-1-44-21-86-21z m-240 102l20-10c0 0 32-15 60-15 28 0 60 15 60 15l20 10 19-10c0 0-37 76-37 76-6 11-14 20-25 26l-128 66c-4 3-8 4-13 4-4 0-9-1-13-3l-89-45c-14-7-20-24-13-38 5-10 15-16 26-16 4 0 9 1 13 3l76 38 59-31-98-93c23 3 43 13 43 13z"/>
<glyph glyph-name="rollerhockey-b420e811-c5c7-4513-93eb-5e2c6c591294" unicode="&#116;" d="M110 7c-35 0-62 28-62 63 0 35 27 62 62 62 35 0 63-27 63-62 0-35-28-63-63-63z m0 98c-19 0-34-15-34-35 0-20 15-35 34-35 20 0 35 15 35 35 0 20-15 35-35 35z m97-98c-35 0-62 28-62 63 0 35 27 62 62 62 35 0 63-27 63-62 0-35-27-63-63-63z m0 98c-19 0-34-15-34-35 0-20 15-35 34-35 20 0 35 15 35 35 0 20-15 35-35 35z m98-98c-36 0-63 28-63 63 0 35 28 62 63 62 35 0 62-27 62-62 0-35-27-63-62-63z m0 98c-20 0-35-15-35-35 0-20 15-35 35-35 19 0 34 15 34 35 0 20-15 35-34 35z m97-98c-35 0-63 28-63 63 0 35 28 62 63 62 35 0 62-27 62-62 0-35-27-63-62-63z m0 98c-20 0-35-15-35-35 0-20 15-35 35-35 20 0 35 15 35 35 0 20-15 35-35 35z m8-3c84 0 102 119 22 143-25 7-51 11-78 11-27 0-91 24-109 69-12 34-3 126-3 155 0 12-14 25-43 25-28 0-64-13-64-36-32 0-89-18-89-71 0-14 0-66 0-82 0-57-18-78-18-149 0-2 1-3 1-5 4-35 36-60 72-60z m-212 189c-11 0-18 7-18 18 0 11 7 18 18 18 10 0 17-7 17-18 0-11-7-18-17-18z m-9 71c-11 0-18 8-18 18 0 11 7 18 18 18 10 0 17-7 17-18 0-10-7-18-17-18z m44-124c-11 0-18 7-18 18 0 10 7 18 18 18 11 0 18-7 18-18 0-11-7-18-18-18z m62-36c-10 0-18 7-18 18 0 11 8 18 18 18 11 0 18-7 18-18 0-11-7-18-18-18z"/>
<glyph glyph-name="ping-pong-002fd2df-9873-4935-a629-8deba8d4c590" unicode="&#117;" d="M49 15c7-8 20-8 28 0l71 80c36 22 120 19 120 19l-148 147c0 0 4-83-19-120l-79-71c-8-8-8-20 0-28z m271 82c-14 0-42 0-68 14-1 0-2 1-3 2l-130 129c-1 1-1 2-2 3-13 23-14 43-14 62 0 41 21 80 66 125 46 46 100 71 154 71 47 0 92-20 129-58 38-37 58-82 58-129 0-53-25-108-71-153-34-34-72-66-119-66z m-53 37c19-9 42-9 53-9 36 0 69 27 99 57 41 41 63 88 63 134 0 39-17 77-49 109-33 33-71 50-110 50-46 0-94-23-134-63-40-39-58-72-58-105 0-16 1-30 9-47z m-199 237c-36 0-66 29-66 66 0 36 30 66 66 66 37 0 66-30 66-66 0-37-29-66-66-66z m0 104c-21 0-38-17-38-38 0-21 17-39 38-39 21 0 39 18 39 39 0 21-18 38-39 38z"/>
<glyph glyph-name="lacrosse-c6035358-0e02-48f8-bf3e-05cd650b9f2d" unicode="&#118;" d="M342 222l-189 0 0 15 174 0 0 257 15 0z m105 22l-14 0 0 189-189 0 0 14 181 0c12 0 22-10 22-22z m-210-96l-15 0 0 195 271 0 0-15-256 0z m-229-102l145 145 38-39-144-144c-11-11-28-11-39 0-11 11-11 28 0 38z m504 264c1 42-23 94-65 136-43 43-95 67-137 66-22 0-38-8-50-22-29-31-32-59-34-84-3-29-6-58-45-96-32-31-51-68-51-101 0-12 4-25 10-37 7-13 19-25 33-32 11-6 24-10 37-10 32 0 69 19 100 51 39 39 67 42 96 44 26 3 53 6 84 35 14 12 22 28 22 50z m-89-57c-11-2-23-3-34-4-18-3-37-7-53-15-16-9-30-21-44-33-12-11-24-23-40-27-21-5-45 3-60 17-15 16-23 40-18 61 4 16 16 28 27 40 13 13 24 27 33 44 9 16 12 35 15 53 1 11 2 23 4 34 4 22 15 47 35 57 16 8 34 6 50 2 34-9 64-31 89-55 25-25 46-55 55-90 5-16 7-34-1-49-11-21-36-31-58-35z"/>
<glyph glyph-name="hockey-66f37304-588b-439b-b5f7-d2284f28453d" unicode="&#119;" d="M461 512c0 0-78-314-103-333-48-40-276-30-297-30-38 0-61-26-61-56l0-32c0-37 16-61 67-61 103 0 220 13 283 40 52 23 53 56 162 472z m-461-186l0-29c0-23 43-43 96-43 53 0 96 20 96 43l0 29c-21-16-56-27-96-27-40 0-75 11-96 27z m96-8c53 0 96 20 96 43 0 24-43 43-96 43-53 0-96-19-96-43 0-23 43-43 96-43z"/>
<glyph glyph-name="gymnastics-e1216ac8-370f-4077-8524-4e9f369d65f7" unicode="&#120;" d="M492 473c8 6 12 18 7 27-5 11-18 15-29 10l-208-105-230 0c-12 0-21-9-21-21 0-11 8-19 18-21l174-22 0-320c0-12 9-21 21-21 12 0 21 10 21 21l13 139c0 6 2 12 5 17l25 46c7 13 21 21 36 22l156 11c12 0 21 10 21 21 0 12-9 22-21 22l-171 0 0 43z m-97-313c0-30-24-53-54-53-29 0-53 23-53 53 0 29 24 53 53 53 30 0 54-24 54-53z"/>
<glyph glyph-name="golf-09673449-f0b9-41e7-89f7-2b6dca07bf87" unicode="&#121;" d="M273 4l2 49c1 26 23 47 50 47l16 0 0 43-170 0 0-43 16 0c27 0 49-21 50-47l2-49z m57 197c0-7-6-14-14-14-8 0-14 7-14 14 0 8 6 15 14 15 8 0 14-7 14-15z m29 29c0-8-6-14-14-14-8 0-15 6-15 14 0 8 7 14 15 14 8 0 14-6 14-14z m28 29c0-8-6-15-14-15-8 0-14 7-14 15 0 7 6 14 14 14 8 0 14-7 14-14z m-28 28c0-8-6-14-14-14-8 0-15 6-15 14 0 8 7 14 15 14 8 0 14-6 14-14z m-29-28c0-8-6-15-14-15-8 0-14 7-14 15 0 7 6 14 14 14 8 0 14-7 14-14z m57 56c0-7-6-14-14-14-8 0-14 7-14 14 0 8 6 15 14 15 8 0 14-7 14-15z m-85-85c0-8-7-14-15-14-7 0-14 6-14 14 0 8 7 14 14 14 8 0 15-6 15-14z m-29-29c0-7-6-14-14-14-8 0-14 7-14 14 0 8 6 15 14 15 8 0 14-7 14-15z m-17-72c-105 0-190 85-190 189 0 105 85 190 190 190 105 0 190-85 190-190 0-104-85-189-190-189z m0 351c-89 0-161-73-161-162 0-88 72-161 161-161 89 0 161 73 161 161 0 89-72 162-161 162z"/>
<glyph glyph-name="football-1650586f-266a-4232-b20c-fd90259b2756" unicode="&#122;" d="M149 9c-46 0-85 12-106 34-57 56-51 229 73 353 79 79 180 107 247 107 46 0 85-12 106-34 30-29 41-88 30-154-12-74-49-144-103-199-79-79-180-107-247-107z m214 467c-62 0-155-26-228-99-114-114-116-273-73-315 16-16 48-26 87-26 62 0 155 26 228 99 51 51 85 116 96 184 9 57 0 108-23 131-16 16-48 26-87 26z m110-209l-206 206c-47-16-98-43-141-87-43-43-71-92-87-141l206-206c47 16 98 43 141 87 43 43 71 92 87 141z m-172-37c5-5 5-14 0-19-5-5-14-5-19 0l-26 26-29-29 26-26c5-5 5-14 0-19-5-5-14-5-19 0l-26 26-19-19c-5-5-14-5-19 0-5 5-5 14 0 19l19 19-26 26c-5 5-5 14 0 19 5 5 14 5 19 0l26-26 29 29-26 26c-5 5-5 14 0 19 5 5 14 5 19 0l26-26 29 29-26 26c-5 5-5 14 0 19 5 5 14 5 19 0l26-26 19 19c5 5 14 5 19 0 5-5 5-14 0-19l-19-19 26-26c5-5 5-14 0-19-5-5-14-5-19 0l-26 26-29-29z"/>
<glyph glyph-name="synchronizedswimming-21e7a659-95a7-4599-a2e9-e0c4d906f266" unicode="&#65;" d="M417 101c-34 0-67 12-80 18-14-6-47-18-81-18-34 0-67 12-80 18-14-6-47-18-81-18-43 0-84 20-86 21-7 4-10 12-7 19 4 7 12 9 19 6 1 0 38-18 74-18 37 0 74 18 75 18l6 3 6-3c1 0 38-18 74-18 37 0 74 18 75 18l6 3 6-3c0 0 38-18 74-18 37 0 74 18 75 18 6 4 15 1 18-6 4-7 1-15-6-19-2-1-44-21-87-21z m-136 218c25 0 46 21 46 46 0 26-21 46-46 46-26 0-47-20-47-46 0-25 21-46 47-46z m184-109c26 0 46 21 46 46 0 26-21 47-46 47-26 0-46-21-46-47 0-25 20-46 46-46z m-257-13c4 0 7 1 11 3l61 30 47-24-49-47c18 3 34 10 40 13l18 9 19-9c11-5 39-16 62-16 6 0 12 1 19 2l-22 45c-5 9-12 16-20 20l-103 54c-4 2-8 2-11 2-4 0-7 0-11-2l-71-36c-12-6-16-19-11-31 5-8 13-13 21-13z m-23 69l54 27-10 19c-4 8-11 15-20 20l-103 54c-3 1-7 2-10 2-4 0-7 0-11-2l-71-36c-12-6-17-20-11-31 4-8 12-13 21-13 4 0 7 1 10 3l62 30 47-25c0 0-133-127-133-127 0 0 10-8 11-8 11-7 23-12 35-16 12-4 26-7 39-7 25 0 53 12 62 16l19 10c-5 4-10 9-13 16-13 25-3 56 22 68z"/>
<glyph glyph-name="tennis-33639601-634a-4d01-b741-03c6e10d2eae" unicode="&#66;" d="M499 312c23 54 16 118-27 160-42 42-106 50-159 27-14-6-27-13-39-22 11-15 18-32 21-50 55 40 106 41 140 7 40-40 32-105-36-172-67-67-142-86-182-45-20 20-26 49-17 82-18-3-36-1-53 4-4-26-3-52-6-79-3-24-8-55-25-73l36-36c18 18 48 23 72 26 38 4 75 0 111 14 40 16 75 42 105 72 24 25 46 53 59 85z m-328-153c-4-1-8 0-10 2-3 3-4 7-3 10 2 8 6 27 6 27 4-6 9-13 15-18 6-6 12-11 19-16-1 0-20-3-27-5z m-40-50c8-8 8-21 0-29l-75-75c-9-9-28-5-42 9-14 14-18 33-9 42l75 75c8 8 22 8 29 0z m45 215c-23 0-47 9-65 27-37 37-37 96 0 132 36 36 95 36 131 0 37-36 37-95 0-132-18-18-42-27-66-27z m-55 149c-31-31-31-81 0-111 30-31 80-31 111 0 30 30 30 80 0 111-31 30-81 30-111 0z m48-141c0 20-9 40-23 55-15 15-35 23-55 23l0 15c24 0 48-10 65-28 18-17 28-41 28-65z m93 78c-25 0-48 10-66 27-17 18-27 41-27 66l15 0c0-21 8-41 23-55 15-15 34-23 55-23z"/>
<glyph glyph-name="volleyball-d76f8d5d-49df-44ca-98c7-bc032d488328" unicode="&#67;" d="M256 0c-61 0-117 21-160 57-1 0-2 1-3 2-57 47-93 118-93 197 0 61 22 117 58 162 0 1 1 2 2 2 47 56 117 92 196 92 118 0 217-80 247-188 0 0 0-1 0-1 6-22 9-44 9-67 0-24-3-47-9-69 0 0 0 0-1-1-30-107-129-186-246-186z m123 230c-6-36-29-128-110-202 96 6 175 70 204 157-20 15-51 34-94 45z m-251-163c29-20 63-33 99-37 95 71 119 173 125 207-24 4-51 7-81 5-36-94-99-147-143-175z m-70 303c-19-34-30-73-30-114 0-68 30-129 77-171 21 13 49 33 76 62-31 25-107 97-123 223z m26 35c4-137 85-213 115-236 17 23 34 51 46 84-67 82-81 164-84 211-30-14-56-34-77-59z m202-134c92 0 157-31 194-57 3 14 4 28 4 42 0 19-2 37-7 55-114 72-223 51-260 42 11-27 27-55 50-82 7 0 13 0 19 0z m13 120c46 0 104-9 164-40-36 79-115 133-207 133-23 0-46-3-67-10 0-20 3-54 17-95 18 5 51 12 93 12z"/>
<glyph glyph-name="ultimatefrisbee-c8a96703-e42c-4aa1-a8f3-d167ff6b046a" unicode="&#68;" d="M280 413l-47-25-101-23c-5-1-11-4-15-7l-64-43c-3-2-5-5-7-9l-22-76c-1-3-1-5-1-8 0-16 13-28 28-28 15 0 27 10 28 25l15 52 42 27 0-67-37-71-75-24 0 0c-13-2-24-13-24-27 0-29 25-30 33-29l92 24c4 1 7 3 9 6l55 84-7-73-52-77c-3-4-5-10-5-15 0-16 13-29 29-29 10 0 19 6 24 15l59 85c0 1 2 6 2 6l11 99 0 126 69 37c5 3 8 7 9 12 0 0 24 88 24 92 0 16-12 29-28 29-14 0-26-11-28-25z m232 72c0 15-31 27-68 27-38 0-69-12-69-27 0-15 31-28 69-28 37 0 68 13 68 28z m-285-24c0-28-22-51-51-51-28 0-51 23-51 51 0 28 23 51 51 51 29 0 51-23 51-51z"/>
<glyph glyph-name="trackfield-3f2b0133-0b6d-48f6-8370-9b2f2489c8a2" unicode="&#69;" d="M112 76c0-1-98-33-98-33-8-3-14-11-14-21 0-12 10-22 22-22 2 0 108 21 108 21 10 2 19 8 25 15l46 54c-26 3-49 15-65 34-10-20-24-47-24-48z m385 79l-138 45-80 16 24 72 64-40 0 0c7-4 15-4 22-1l89 45c11 5 15 19 10 30-6 11-19 15-30 10l-75-38-58 58c-17 17-39 26-63 26l-117 0c-14 0-28-6-36-17l-60-81c-7-9-5-23 5-31 4-3 8-4 13-4 7 0 13 3 18 9l59 78 53-11-38-114c-2-6-3-12-3-18 0-30 25-55 55-55 5 0 10 0 14 1l102 15 155-38c3 0 5-1 8-1 9 0 17 6 21 15 4 12-3 25-14 29z m-119 301c0-31-24-55-55-55-31 0-56 24-56 55 0 31 25 56 56 56 31 0 55-25 55-56z"/>
<glyph glyph-name="waterpolo-caa0962d-62a9-4331-b5b7-03434e8774a2" unicode="&#70;" d="M204 97c7-3 28-12 47-13l23 76c0 0 217-32 218-32 9 0 17 6 19 14 3 11-3 21-13 25l-444 123-15 133c0 11-8 20-19 20-11 0-20-9-20-20l0-140c0-16 9-29 22-35l109-55-31-109c20 0 44 10 51 13l26 12z m210-82c-33 0-66 12-79 18-14-6-46-18-79-18-33 0-65 12-79 18-13-6-46-18-79-18-42 0-83 20-85 21-7 4-10 12-6 20 3 7 12 10 19 7 1-1 37-19 72-19 36 0 72 18 73 18l6 4 7-4c0 0 37-18 72-18 35 0 72 18 72 18l7 4 6-4c1 0 37-18 73-18 35 0 71 18 72 18 7 4 16 1 20-6 3-8 0-16-7-20-2-1-43-21-85-21z m-281 438c0-25-20-44-44-44-25 0-45 19-45 44 0 24 20 44 45 44 24 0 44-20 44-44z m182-128c0-33-26-59-59-59-33 0-59 26-59 59 0 33 26 59 59 59 33 0 59-26 59-59z"/>
<glyph glyph-name="wrestling-c7389632-a347-4891-a3c2-ebdb96f25868" unicode="&#71;" d="M169 241c4-6 11-10 18-10l49 0c11 0 20 9 20 20 0 11-9 20-20 20l-40 0-22 58c-2 5-7 9-12 12l-27 9c-3 1-7 2-10 2-12 0-22-6-27-15l-49-79c-3-5-5-11-5-17l0-77-37-64c-2-3-4-7-4-11 0-11 9-20 20-20 8 0 14 4 18 11l40 70c1 2 2 4 2 5l10 58 50-48 23-81c2-9 10-15 19-15 11 0 20 9 20 20 0 2-21 88-21 88-1 2-2 4-4 6l-54 62 20 39z m332-136l-48 39 15 72c0 2 0 3 0 5 0 9-4 17-11 23l-57 68c-6 6-14 10-23 10-3 0-7-1-10-2l-27-10c-6-2-10-6-12-12l-22-55-46-14c-8-2-14-10-14-19 0-11 9-20 20-20 3 0 5 1 8 2l54 18c6 2 11 6 13 12l14 31 31-29-52-49c-4-3-5-7-7-14l-20-69c0-1 0-2 0-3 0-12 9-21 20-21 10 0 18 8 19 18l20 61 55 45c0 0-12-44-13-53-1-6 3-11 7-15l0 0 61-51c4-3 8-5 12-5 11 0 21 9 21 20 0 7-3 13-8 17z m-154 247c0-22-18-40-40-40-23 0-41 18-41 40 0 22 18 41 41 41 22 0 40-19 40-41z m-142 51c0-23-18-41-40-41-22 0-40 18-40 41 0 22 18 40 40 40 22 0 40-18 40-40z"/>
<glyph glyph-name="wiffleball-637f840d-3d62-4be0-af2a-49a946512ab3" unicode="&#72;" d="M47 14c7-7 18-7 25 0l66 74c34 21 111 18 111 18l-136 136c0 0 3-77-18-111l-74-66c-7-7-7-18 0-26z m233 81c-20 0-37 2-46 7-1 1-2 1-3 3l-120 119c-1 1-2 2-2 3-5 10-8 24-9 31-1 8 5 15 12 16 8 1 15-5 16-12 1-10 3-16 4-20l117-116c19-7 91-4 116 20 21 22 64 65 99 100 12 11 18 27 18 43 0 16-6 32-18 43l-125 126c-24 23-63 23-87 0l-21-22-19 19 21 22c34 34 91 34 125 0l126-126c17-17 26-39 26-63 0-23-9-46-26-62-35-35-78-78-100-100-22-22-68-31-104-31z m-149 150c-71 0-129 58-129 129 0 71 58 129 129 129 71 0 129-58 129-129 0-71-58-129-129-129z m0 230c-56 0-101-45-101-101 0-56 45-101 101-101 56 0 102 45 102 101 0 56-46 101-102 101z m0-133c-2 0-4 0-5 1-9 1-16 6-21 13-5 7-6 15-5 23 2 9 6 16 13 21 7 5 15 7 24 5 8-1 15-6 20-13 5-7 7-15 5-24-1-8-6-15-13-20-5-4-11-6-18-6z m0 50c-3 0-7-2-10-4-4-2-6-6-7-11-1-5 0-9 3-13 2-4 6-7 11-8 5 0 10 0 13 3 4 3 7 7 8 12 1 4 0 9-3 13-3 4-7 6-12 7-1 1-2 1-3 1z m0 52c-20 0-36 12-36 26 0 14 16 26 36 26 21 0 37-12 37-26 0-14-16-26-37-26z m0 38c-13 0-22-6-22-12 0-6 9-12 22-12 13 0 23 6 23 12 0 6-10 12-23 12z m97-113c-5 0-11 2-16 6-6 5-11 12-14 21-3 9-3 18-1 25 2 9 7 15 14 18 14 4 29-7 36-27 7-19 1-38-13-43-2 0-4 0-6 0z m-11 57c0 0-1 0-2 0-2-1-4-4-5-8-1-5-1-11 1-18 2-6 6-11 10-15 3-2 6-3 9-2 5 2 8 13 4 25-4 11-12 18-17 18z m-40-160c-8 0-15 3-19 9-8 11-2 30 15 42 9 7 21 10 30 9 6-1 11-4 14-8 5-6 5-15 2-23-3-7-9-14-16-20-8-6-18-9-26-9z m21 46c-5 0-12-2-17-6-11-8-15-19-12-23 4-5 15-4 26 3 5 4 9 9 11 14 2 4 2 7 0 9-1 2-3 3-5 3-1 0-2 0-3 0z m-163 57c-3 0-5 0-7 1-13 4-19 23-12 42 6 20 22 31 36 27 7-2 12-9 14-17 2-8 2-17-1-26-6-16-18-27-30-27z m-6 39c-5-12-2-23 4-25 5-2 14 5 18 17 2 7 3 13 2 18-1 4-3 7-6 8-5 2-14-5-18-18z m56-142c-8 0-17 3-26 9-7 5-13 13-16 20-3 8-2 17 2 23 4 5 12 9 21 8 8 0 16-3 24-9 16-12 23-30 14-42-4-6-11-9-19-9z m-21 46c-3 0-6-1-8-3-1-2-1-5 0-9 2-5 6-10 12-14 10-7 22-8 25-4 3 5-1 16-11 24-6 3-11 6-17 6 0 0-1 0-1 0z"/>
<glyph glyph-name="weightlifting-35d51739-a7f7-4172-897c-b930315143dd" unicode="&#73;" d="M457 167c0-9-8-17-17-17-9 0-17 8-17 17l0 123c0 9 8 16 17 16 9 0 17-7 17-16z m-402 0c0-9 8-17 17-17 9 0 17 8 17 17l0 123c0 9-8 16-17 16-9 0-17-7-17-16z m368 0c0-9-7-17-16-17-10 0-17 8-17 17l0 123c0 9 7 16 17 16 9 0 16-7 16-16z m-334 0c0-9 7-17 16-17 10 0 17 8 17 17l0 123c0 9-7 16-17 16-9 0-16-7-16-16z m79 48l-146 0c-8 0-14 6-14 13 0 7 6 14 14 14l146 0c7 0 13-7 13-14 0-7-6-13-13-13z m322 0l-146 0c-7 0-13 6-13 13 0 7 6 14 13 14l146 0c8 0 14-7 14-14 0-7-6-13-14-13z m-189 225c0-25-20-45-45-45-25 0-45 20-45 45 0 25 20 45 45 45 25 0 45-20 45-45z m44-229l-9 137c-1 14-13 25-27 25l-106 0c-14 0-26-11-27-25l-9-137c0-9 7-16 16-16 6 0 10 2 13 6-7-43-24-150-24-151 0-12 9-22 22-23 10 1 19 8 21 18l41 161 41-161c2-10 11-17 21-18 12 1 22 11 22 23 0 1-18 108-24 151 3-4 7-6 12-6 10 0 17 7 17 16z m-33 4l-112 0 0 27 112 0z"/>
<glyph glyph-name="commissioner-reporting" unicode="&#74;" d="M256 0c-141 0-256 115-256 256 0 141 115 256 256 256 141 0 256-115 256-256 0-141-115-256-256-256z m0 488c-128 0-232-104-232-232 0-128 104-232 232-232 128 0 232 104 232 232 0 128-104 232-232 232z m-128-129l0-206 247 0 0 206z m20-20l206 0 0-165-206 0z m178-24l-24-24-12 14-15-15 20-21 8-7 7 7 31 31z m-157-18l0-20 82 0 0 20z m157-44l-24-23-13 13-15-15 21-21 7-7 8 7 31 31z m-157-18l0-20 82 0 0 20z"/>
<glyph glyph-name="game-film" unicode="&#75;" d="M256 0c-141 0-256 115-256 256 0 141 115 256 256 256 141 0 256-115 256-256 0-141-115-256-256-256z m0 488c-128 0-232-104-232-232 0-128 104-232 232-232 128 0 232 104 232 232 0 128-104 232-232 232z m-1-70c-88 0-159-71-159-159 0-4 3-6 6-6 4-1 7 2 7 5l0 1c1 63 42 119 102 138 61 19 126-3 163-55l-36 0c-2 0-4-1-5-2-2-1-2-3-2-5 0-4 3-7 6-7l63 0 0 62c0 2-1 4-2 5-1 2-3 2-5 2-2 0-4 0-5-2-1-1-2-3-2-5l0-41c-29 43-79 69-131 69z m152-152c-2 0-4-1-5-2-1-1-2-3-2-5 0-63-41-120-102-139-60-19-126 4-162 56l36 0c2 0 5 1 6 3 2 2 2 5 1 7-1 3-4 4-6 4l-64 0 0-62c1-4 4-7 7-7 4 0 7 3 7 7l0 42c40-58 112-83 178-63 67 21 113 82 113 152 0 4-3 7-7 7z m-208 40c-8 0-14-6-14-13l0-68c0-7 6-13 14-13l88 0c7 0 13 6 13 13l0 20 23-18c1-1 3-2 5-2 1 1 3 2 4 3 1 1 2 3 2 4l0 54c0 4-3 7-7 7-2 0-3-1-4-2l-23-18 0 20c0 7-6 13-14 13z"/>
<glyph glyph-name="observer" unicode="&#76;" d="M256 0c-141 0-256 115-256 256 0 141 115 256 256 256 141 0 256-115 256-256 0-141-115-256-256-256z m0 488c-128 0-232-104-232-232 0-128 104-232 232-232 128 0 232 104 232 232 0 128-104 232-232 232z m163-247c-1 7-4 13-7 19l-36 62c-6 10-17 16-28 16l-2 0 0 0c-1 18-16 32-33 32-18 0-32-14-33-32l0 0-43 0 0 0c-1 18-15 32-33 32-17 0-32-14-32-32l0 0-2 0c-12 0-23-6-29-16l-35-62c-20-34-8-77 25-96 33-20 76-10 97 23 3 6 6 12 8 19 13-13 34-13 46 0l1 1c11-36 48-56 84-48 36 9 59 45 52 82z m-252-66c-27 0-49 22-50 49 0 27 23 49 50 49 27 0 49-22 49-49 0-13-5-26-14-35-10-9-22-14-35-14z m233 49c0-13-5-26-14-35-10-9-22-14-35-14-27-1-50 21-50 48 0 28 22 50 49 50 27 0 49-21 50-49z m-131 5c0-6-5-11-11-11-6 0-11 5-11 11 0 6 5 11 11 11 6 0 11-5 11-11z"/>
<glyph glyph-name="officials-ratings-forms" unicode="&#77;" d="M256 0c-141 0-256 115-256 256 0 141 115 256 256 256 141 0 256-115 256-256 0-141-115-256-256-256z m0 488c-128 0-232-104-232-232 0-128 104-232 232-232 128 0 232 104 232 232 0 128-104 232-232 232z m135-132c-3 1-6 0-8-1l-54-31c-5-3-7-10-4-15 3-5 10-7 15-4l54 31c4 2 6 6 6 11-1 5-5 8-9 9z m-77 9c-4 2-9 0-12-4l-19-29c-2-3-3-8-1-11 2-4 5-6 9-7 4 0 8 2 10 6l19 29c2 3 3 6 2 10-2 3-4 6-8 6z m-178-31c-3 1-6 0-9-1-2-2-4-4-5-7l-14-53c-1-5 2-10 7-12 4-2 10 0 13 4l69-39c-11-44 14-90 58-104 43-15 91 7 108 50 8-6 18-5 23 3 6 7 4 17-3 23-4 3-9 4-13 3 0 41-28 78-68 88l-29 8-9-32c-1-5-7-9-13-7-6 1-9 7-8 13l9 32-115 30z"/>
<glyph glyph-name="team-game-contracts" unicode="&#78;" d="M256 0c-141 0-256 115-256 256 0 141 115 256 256 256 141 0 256-115 256-256 0-141-115-256-256-256z m0 488c-128 0-232-104-232-232 0-128 104-232 232-232 128 0 232 104 232 232 0 128-104 232-232 232z m-100-360c0-4 4-8 8-8l184 0c4 0 8 4 8 8l0 20-200 0z m254 165l-7 14-47-23 0 26 36 19c-4 7-8 15-12 22-9 14-22 24-37 28l-49 12c-3 1-7 0-9-4 0-1-10-20-29-20-20 0-29 19-30 20-1 4-5 5-9 4l-49-12c-15-4-28-14-36-28-4-7-8-15-12-23l36-18 0-26-48 23-7-14c-1-2-1-4-1-6 1-2 2-4 4-5l46-22c1-1 4-1 6 0l0-85 199 0 0 85c2-1 4-1 6 0l46 22c2 1 3 3 4 5 0 2 0 4-1 6z"/>
<glyph glyph-name="zebrapay" unicode="&#79;" d="M256 0c-141 0-256 115-256 256 0 141 115 256 256 256 141 0 256-115 256-256 0-141-115-256-256-256z m0 488c-128 0-232-104-232-232 0-128 104-232 232-232 128 0 232 104 232 232 0 128-104 232-232 232z m-26-137c-3 0-5 0-7-1-2 0-4-1-5-2-2-1-3-2-5-3-1-1-2-2-4-3-1-2-2-3-3-5-3 1-5 2-8 2-5 0-9-1-12-3-6-4-12-8-17-14-6-4-21-16-35-26l-27-19c-3-2-4-5-3-8 2-3 5-4 8-3 1 0 1 0 2 1 0 0 12 9 27 19 14 10 29 21 35 26 5 5 10 9 15 13 4 2 8 2 11 0 0-1 0-2 0-2l0-73-8-4c-2 0-3-1-4-3-1-1-1-3 0-5 0-1 1-3 3-3 1-1 3-1 4-1 1 0 1 1 2 1l56 26c7 4 15 7 23 9 6 2 10 1 12-3 3-3 4-9 3-14-2-6-7-12-12-16-12-7-24-13-37-17l-1-1-1 0c-11-10-17-19-26-25-8-6-18-10-39-10l-1 0-66-4c-1 0-3-1-4-2-1-2-2-3-1-5 0-3 3-6 6-5l66 3 0 0c13 0 25 2 36 7 1-5 5-8 10-10 6-2 13-2 19 1 2 1 4 2 6 4 2-5 6-9 11-10 5-2 11-3 16-2 5 2 9 4 13 8l1 2c2-1 3-2 5-2 8-2 17 0 24 7 7 8 10 18 11 28l53 0c10 1 20 7 24 17 1 3 2 7 2 10l0 92c0 1 0 2 0 3 0 3-1 5-2 8-1 1-2 3-3 5-4 6-10 10-18 11-1 1-3 1-5 1z m-16-30l182 0 0-25-182 0z m30-116l4 0c0-4-1-11-1-15 0 0 0-1 0-1l-1-1c-3-3-6-6-9-7-3-2-7-2-11-1-1 1-3 3-3 5 8 6 14 13 21 20z m17 0l23 0c0-3-1-6-2-9 0-5 0-9 0-14l-1-1c-1-1-2-3-2-3-2-2-5-3-8-4-2-1-5-1-8 0-2 1-3 3-4 5-1 3-1 6 0 9 1 6 1 13 2 17z m35 0l21 0c-1-7-3-14-8-20-3-4-8-5-12-4-2 0-2 1-2 3-1 4-1 7 0 10 0 4 1 8 1 11z"/>
<glyph glyph-name="zebrasecretary" unicode="&#80;" d="M256 0c-141 0-256 115-256 256 0 141 115 256 256 256 141 0 256-115 256-256 0-141-115-256-256-256z m0 488c-128 0-232-104-232-232 0-128 104-232 232-232 128 0 232 104 232 232 0 128-104 232-232 232z m0-488c-141 0-256 115-256 256 0 141 115 256 256 256 141 0 256-115 256-256 0-141-115-256-256-256z m0 488c-128 0-232-104-232-232 0-128 104-232 232-232 128 0 232 104 232 232 0 128-104 232-232 232z m133-199l-16-16-44 44 16 16c5 5 12 6 17 2l29-30c4-5 3-12-2-16m-67 21l-75-77-76 0c-3 0-5-2-5-5 0-3 2-5 5-5l66 0-19-20c-1-1-2-2-3-4l0 0-17-56c-1-2 0-3 1-4 1-1 2-2 4-1l54 18c1-1 1-1 1 0 1 0 3 1 4 2l104 107z m-97-156l-11 12 7 23 27-27z m91-20c0-3-3-6-6-6l-170 0c-3 0-6 3-6 6l0 226c0 3 3 5 6 5l20 0 0-8c-1-2 0-3 1-4 1-1 2-2 3-2 3 0 6 2 6 5l0 9 30 0 0-8c0-3 3-6 5-6 3 0 6 2 6 5l0 9 26 0 0-8c1-3 3-5 6-5 2 0 5 2 5 4l0 9 29 0 0-8c0-3 3-5 5-5 3 0 6 2 6 5l0 8 22 0c3 0 6-2 5-5l0-37 16 16 0 21c1 12-9 21-21 22l-22 0 0 13c0 3-3 5-5 5-3 0-6-2-6-5l0-13-29 0 0 13c0 3-2 5-5 5-3 0-5-2-5-5l0-13-27 0 0 13c0 1 0 2-1 3-1 1-3 2-4 2-3 0-5-2-6-5l0-13-30 0 0 13c0 3-2 5-5 5-3 0-5-2-5-5l0-13-20 0c-12-1-21-10-21-22l0-226c0-12 9-22 21-22l170 0c12 0 22 10 22 22l0 78-16-16z m-42 183l-103 0c-3 0-5-2-5-5 0-3 2-5 5-5l103 0c3 0 5 2 5 5 0 3-2 5-5 5m0-40l-103 0c-3 0-5-2-5-5 0-3 2-5 5-5l103 0c3 0 5 2 5 5 0 3-2 5-5 5"/>
<glyph glyph-name="zebraweb" unicode="&#81;" d="M256 0c-141 0-256 115-256 256 0 141 115 256 256 256 141 0 256-115 256-256 0-141-115-256-256-256z m0 488c-128 0-232-104-232-232 0-128 104-232 232-232 128 0 232 104 232 232 0 128-104 232-232 232z m-111-309l224 0c13 0 24 11 24 24l0 151c0 13-11 24-24 24l-224 0c-13 0-23-11-23-24l0-151c0-13 10-24 23-24m-8 180c0 1 1 1 2 1l236 0c1 0 1 0 2 0 0 0 0-1 0-1l0-161c0-1-1-2-2-2l-236 0c-1 0-1 0-2 1 0 0 0 1 0 1z m273-189c4 0 8-4 8-9 0-13-10-23-23-23l-276 0c-13 0-23 10-23 23 0 5 4 9 8 9l306 0m-189 140c-1 2 0 4 2 4 1 1 1 1 2 0l56-19c1 0 1-1 2-2 0 0 0-1 0-2-1-1-1-1-2-2l-12-7 23-23c1-1 1-3 0-4l-11-12c-1 0-2-1-3-1 0 0-1 0-2 1l-23 23-7-12c0-1-1-1-2-2-1 0-2 0-2 1-1 0-1 1-2 1z"/>
</font>
</defs>
</svg>
